Dont Miss To Get Latest Movies and Tv Show Direct In Your Inbox Enter your email address:  

Thuppaki Munai (2019) Hindi Dubbed Full Movie HD 720p

May 17, 2019 Hindi Dubbed
Download Here                   Watch Now

Thuppaki Munai (2019) Hindi Dubbed Full Movie HD 720p.mp4

IMDB Link

General
Complete name : Thuppaki Munai (2019) Hindi Dubbed Full Movie HD.mp4
Format : MPEG-4
Format profile : Base Media / Version 2
Codec ID : mp42 (mp42)
File size : 680 MiB
Duration : 2 h 14 min
Overall bit rate mode : Constant
Overall bit rate : 709 kb/s
Codirector : codirector
Production studio : studio
ContentType : Unknown Type

Video
Format : MPEG-4 Visual
Format settings, BVOP : Yes
Format settings, QPel : No
Format settings, GMC : No warppoints
Format settings, Matrix : Default (H.263)
Codec ID : 20
Duration : 2 h 14 min
Bit rate mode : Constant
Bit rate : 512 kb/s
Width : 720 pixels
Height : 308 pixels
Display aspect ratio : 2.35:1
Frame rate mode : Constant
Frame rate : 25.000 FPS
Color space : YUV
Bit depth : 8 bits
Scan type : Progressive
Compression mode : Lossy
Bits/(Pixel*Frame) : 0.092
Stream size : 491 MiB (72%)

Audio
Format : AAC
Format/Info : Advanced Audio Codec
Format profile : LC
Codec ID : 40
Duration : 2 h 14 min
Bit rate mode : Constant
Bit rate : 192 kb/s
Channel(s) : 2 channels
Channel positions : Front: L R
Sampling rate : 44.1 kHz
Frame rate : 43.066 FPS (1024 SPF)
Compression mode : Lossy
Stream size : 184 MiB (27%)
Title : Stereo
Language : English








indishare Link

TheFilesLocker Link

MegaUp Link

OpenLoad Link

UserscLoud Link

ClicknupLoad Link

BDupload Link

UpPom Link

UploadBuzz Link

Download Here                   Watch Now

Comments