Dont Miss To Get Latest Movies and Tv Show Direct In Your Inbox Enter your email address:  

As Above, So Below Dual Audio Hindi Movie 720p

March 21, 2019 Dual Audio 720p Movies
Download Here                   Watch Now

As Above So, Below Dual Audio Hindi Movie 720p.mkv

IMDB Link

General
Complete name : As Above, So Below Dual Audio Hindi 720p.mp4
Format : MPEG-4
Format profile : Base Media
Codec ID : isom (isom/iso2/avc1/mp42)
File size : 589 MiB
Duration : 1 h 56 min
Overall bit rate mode : Variable
Overall bit rate : 708 kb/s
Writing application : Lavf55.33.100

Video
Format : AVC
Format/Info : Advanced Video Codec
Format profile : [email protected]
Format settings, CABAC : Yes
Format settings, RefFrames : 4 frames
Codec ID : avc1
Codec ID/Info : Advanced Video Coding
Duration : 1 h 56 min
Bit rate : 512 kb/s
Width : 640 pixels
Height : 480 pixels
Display aspect ratio : 4:3
Frame rate mode : Constant
Frame rate : 25.000 FPS
Color space : YUV
Chroma subsampling : 4:2:0
Bit depth : 8 bits
Scan type : Progressive
Bits/(Pixel*Frame) : 0.067
Stream size : 425 MiB (72%)

Audio
Format : AAC
Format/Info : Advanced Audio Codec
Format profile : LC
Codec ID : 40
Duration : 1 h 56 min
Bit rate mode : Variable
Bit rate : 192 kb/s
Channel(s) : 2 channels
Channel positions : Front: L R
Sampling rate : 44.1 kHz
Frame rate : 43.066 FPS (1024 SPF)
Compression mode : Lossy
Stream size : 158 MiB (27%)
Default : Yes








indishare Link

TheFilesLocker Link

MegaUp Link

OpenLoad Link

UserscLoud Link

ClicknupLoad Link

BDupload Link

UpPom Link

UploadBuzz Link

Download Here                   Watch Now

Comments